当前时区为 UTC + 8 小时



发表新帖 回复这个主题  [ 4 篇帖子 ] 
作者 内容
1 楼 
 文章标题 : [问题]双网卡共享上网问题。。。
帖子发表于 : 2008-09-20 3:30 
头像

注册: 2007-10-21 16:41
帖子: 1289
地址: GD
送出感谢: 0 次
接收感谢: 0 次
参照此文已成功共享。。
linux 双网卡共享上网 配置心得 http://forum.ubuntu.org.cn/viewtopic.php?t=85128
以下两步也照做了
在/etc/sysctl.conf文件中加上下面一行,打开ip 转发功能:
net.ipv4.ip_forward = 1

在/etc/rc.local 文件中将其余的命令添加到文件中,例如将下面命令添加进去,实现NAT方式共享上网。
iptables -F
iptables -P INPUT ACCEPT
iptables -P FORWARD ACCEPT
iptables -t nat -A POSTROUTING -o eth0 -j MASQUERADE

但每次开机都必须手动输入:
sudo iptables -F
sudo iptables -P INPUT ACCEPT
sudo iptables -P FORWARD ACCEPT
sudo iptables -t nat -A POSTROUTING -o eth0 -j MASQUERADE

才可以实现共享。。
如何才能不用每次开机都输入命令就能实现共享???


_________________
吼吼


页首
 用户资料  
 
2 楼 
 文章标题 : Re: [问题]双网卡共享上网问题。。。
帖子发表于 : 2008-11-29 23:22 
头像

注册: 2007-10-21 16:41
帖子: 1289
地址: GD
送出感谢: 0 次
接收感谢: 0 次
自问自答
代码:
iptables -F
iptables -P INPUT ACCEPT
iptables -P FORWARD ACCEPT
iptables -t nat -A POSTROUTING -o eth0 -j MASQUERADE
要加在exit0前才行的。。


_________________
吼吼


页首
 用户资料  
 
3 楼 
 文章标题 : Re: [问题]双网卡共享上网问题。。。
帖子发表于 : 2009-03-16 20:56 
头像

注册: 2007-10-21 16:41
帖子: 1289
地址: GD
送出感谢: 0 次
接收感谢: 0 次
代码:
PERFORMER "YUKI徐怀钰"
TITLE "[天使]"
FILE "YUKI徐怀钰-[天使].APE" WAVE

TRACK 01 AUDIO
TITLE "衣橱游行(RadioVersion)"
PERFORMER "徐怀钰"
INDEX 01 00:06:00
TRACK 02 AUDIO
TITLE "Call Me"
PERFORMER "徐怀钰"
INDEX 01 01:00:00
TRACK 03 AUDIO
TITLE "I Can't Cry"
PERFORMER "徐怀钰"
INDEX 01 05:00:00
TRACK 04 AUDIO
TITLE "等不及"
PERFORMER "徐怀钰"
INDEX 01 09:24:00
TRACK 05 AUDIO
TITLE "天使"
PERFORMER "徐怀钰"
INDEX 01 13:30:00
TRACK 06 AUDIO
TITLE "友情卡片"
PERFORMER "徐怀钰"
INDEX 01 17:06:00
TRACK 07 AUDIO
TITLE "冒险气球"
PERFORMER "徐怀钰"
INDEX 01 21:27:00
TRACK 08 AUDIO
TITLE "他忘了回来"
PERFORMER "徐怀钰"
INDEX 01 25:20:00
TRACK 09 AUDIO
TITLE "失恋布丁"
PERFORMER "徐怀钰"
INDEX 01 30:15:00
TRACK 10 AUDIO
TITLE "Give Me Five"
PERFORMER "徐怀钰"
INDEX 01 34:51:00
TRACK 11 AUDIO
TITLE "Perfect Life"
PERFORMER "徐怀钰"
INDEX 01 38:20:00


_________________
吼吼


页首
 用户资料  
 
4 楼 
 文章标题 : Re: [问题]双网卡共享上网问题。。。
帖子发表于 : 2009-03-17 9:15 
头像

注册: 2007-08-20 8:13
帖子: 247
送出感谢: 0 次
接收感谢: 0 次
:em04


_________________
每天都在起步。。。如同起床


页首
 用户资料  
 
显示帖子 :  排序  
发表新帖 回复这个主题  [ 4 篇帖子 ] 

当前时区为 UTC + 8 小时


在线用户

正在浏览此版面的用户:没有注册用户 和 3 位游客


不能 在这个版面发表主题
不能 在这个版面回复主题
不能 在这个版面编辑帖子
不能 在这个版面删除帖子
不能 在这个版面提交附件

前往 :  
本站点为公益性站点,用于推广开源自由软件,由 DiaHosting VPSBudgetVM VPS 提供服务。
我们认为:软件应可免费取得,软件工具在各种语言环境下皆可使用,且不会有任何功能上的差异;
人们应有定制和修改软件的自由,且方式不受限制,只要他们自认为合适。

Powered by phpBB © 2000, 2002, 2005, 2007 phpBB Group
简体中文语系由 王笑宇 翻译