当前时区为 UTC + 8 小时



发表新帖 回复这个主题  [ 4 篇帖子 ] 
作者 内容
1 楼 
 文章标题 : ffmpeg 无法使用 xvid 编码
帖子发表于 : 2009-08-12 11:50 
头像

注册: 2007-11-07 17:53
帖子: 387
地址: shanghai
系统: Mac
送出感谢: 0 次
接收感谢: 0 次
代码:
ffmpeg  -i 970321.wmv  -s 320x240 -author Myself -copyright free -comment face -vcodec xvid -r 25 -b 800 -acodec aac -ac 2 -ar 40000 -ab 64 -vol 250 -f mp4 text.mp4

代码:
FFmpeg version SVN-rUNKNOWN, Copyright (c) 2000-2007 Fabrice Bellard, et al.
  configuration: --enable-gpl --enable-pp --enable-swscaler --enable-pthreads --enable-libvorbis --enable-libtheora --enable-libogg --enable-libgsm --enable-dc1394 --disable-debug --enable-shared --prefix=/usr
  libavutil version: 1d.49.3.0
  libavcodec version: 1d.51.38.0
  libavformat version: 1d.51.10.0
  built on Mar 16 2009 21:16:26, gcc: 4.2.4 (Ubuntu 4.2.4-1ubuntu3)

Seems stream 1 codec frame rate differs from container frame rate: 1000.00 (1000/1) -> 29.97 (30000/1001)
Input #0, asf, from '970321.wmv':
  Duration: 00:32:40.1, start: 3.065000, bitrate: 333 kb/s
  Stream #0.0: Audio: wmav2, 44100 Hz, stereo, 48 kb/s
  Stream #0.1: Video: vc1, yuv420p, 640x480, 29.97 fps(r)
Unknown codec 'xvid'

则么办?


_________________
人生来只做的两件事:
1.犯错
2.改错
只犯错不改错的是魔鬼,只改错不犯错的是上帝
总之,都不是人!!!!!!!!!!!!!
我的地盘


页首
 用户资料  
 
2 楼 
 文章标题 : Re: ffmpeg 无法使用 xvid 编码
帖子发表于 : 2009-08-13 16:43 
头像

注册: 2009-05-19 23:08
帖子: 32
送出感谢: 0 次
接收感谢: 0 次
没加 --enable-xvid ?


_________________
only the foolish believes suffering is just wages for being different


页首
 用户资料  
 
3 楼 
 文章标题 : Re: ffmpeg 无法使用 xvid 编码
帖子发表于 : 2009-08-15 1:19 
头像

注册: 2007-11-07 17:53
帖子: 387
地址: shanghai
系统: Mac
送出感谢: 0 次
接收感谢: 0 次
怎么加?


_________________
人生来只做的两件事:
1.犯错
2.改错
只犯错不改错的是魔鬼,只改错不犯错的是上帝
总之,都不是人!!!!!!!!!!!!!
我的地盘


页首
 用户资料  
 
4 楼 
 文章标题 : Re: ffmpeg 无法使用 xvid 编码
帖子发表于 : 2009-08-15 15:50 
头像

注册: 2009-05-19 23:08
帖子: 32
送出感谢: 0 次
接收感谢: 0 次
compile 的时候把 xvid 打开啊


_________________
only the foolish believes suffering is just wages for being different


页首
 用户资料  
 
显示帖子 :  排序  
发表新帖 回复这个主题  [ 4 篇帖子 ] 

当前时区为 UTC + 8 小时


在线用户

正在浏览此版面的用户:没有注册用户 和 4 位游客


不能 在这个版面发表主题
不能 在这个版面回复主题
不能 在这个版面编辑帖子
不能 在这个版面删除帖子
不能 在这个版面提交附件

前往 :  
本站点为公益性站点,用于推广开源自由软件,由 DiaHosting VPSBudgetVM VPS 提供服务。
我们认为:软件应可免费取得,软件工具在各种语言环境下皆可使用,且不会有任何功能上的差异;
人们应有定制和修改软件的自由,且方式不受限制,只要他们自认为合适。

Powered by phpBB © 2000, 2002, 2005, 2007 phpBB Group
简体中文语系由 王笑宇 翻译