当前时区为 UTC + 8 小时



发表新帖 回复这个主题  [ 13 篇帖子 ] 
作者 内容
1 楼 
 文章标题 : [问题]为什么我的Audacious1.5读取cue和其他格式有冲突
帖子发表于 : 2008-06-24 12:59 

注册: 2007-07-21 9:12
帖子: 99
送出感谢: 0 次
接收感谢: 0 次
我按教程将“音频”--格式检测下的两项取消,结果能读APE的cue了,也能放。但是不能放MP3,WMA等其他格式了,FLAC的cue也能读,但是不能播放。。。。
WINE了一个Foobar,但是不能放WMA,晕哦。。。
大家帮忙看看,谢谢!


附件:
screenshot3.png
screenshot3.png [ 12.62 KiB | 被浏览 948 次 ]

页首
 用户资料  
 
2 楼 
 文章标题 : Re: [问题]为什么我的Audacious1.5读取cue和其他格式有冲突
帖子发表于 : 2008-06-24 15:57 
头像

注册: 2006-11-18 18:52
帖子: 450
送出感谢: 0 次
接收感谢: 0 次
scoky 写道:
我按教程将“音频”--格式检测下的两项取消,结果能读APE的cue了,也能放。但是不能放MP3,WMA等其他格式了,FLAC的cue也能读,但是不能播放。。。。
WINE了一个Foobar,但是不能放WMA,晕哦。。。
大家帮忙看看,谢谢!

我的能读...
那两项取消后就能放了

你看下插件里是不是"Monkey's Audio Plugin"?
源自带插件好像有问题
禁用它,然后下个"Monkey's Audio Codec Player 0.3.10",自己编译下,应该就没问题了
我原来是可以放ape、flac,cue也能读,但tta的格式读不出来,后来自己重新编译了下就好了
不知道为什么MAP的占用非常高。


页首
 用户资料  
 
3 楼 
 文章标题 :
帖子发表于 : 2008-06-24 23:44 

注册: 2007-07-21 9:12
帖子: 99
送出感谢: 0 次
接收感谢: 0 次
谢谢LS的,原来将这个给取消了就可以了,但是FLAC的cue还是能读,但不能放


附件:
screenshot1.png
screenshot1.png [ 18.33 KiB | 被浏览 943 次 ]

页首
 用户资料  
 
4 楼 
 文章标题 :
帖子发表于 : 2008-06-25 3:23 

注册: 2008-04-26 7:47
帖子: 229
地址: 德国 斯图加特
送出感谢: 0 次
接收感谢: 0 次
文本打开.cue文件,你看看里面FILE指定的文件在同一目录下是否能知道。

例如
代码:
PERFORMER "Herbert Von Karajan"
TITLE "Karajan Spectacular"
FILE "CDImage.ape" WAVE
  TRACK 01 AUDIO
    TITLE "Richard Strauss / Also sprach Zarathustra op.30: Introduction"
    PERFORMER "Herbert Von Karajan"
    INDEX 01 00:00:00
  TRACK 02 AUDIO
    TITLE "Ludwig Van Beethoven / Symphony No.5 in C minor op.67: 1.Allegro con brio"
    PERFORMER "Herbert Von Karajan"
    INDEX 01 01:44:00
  TRACK 03 AUDIO
    TITLE "Modest Mussorgsky / Pictures at an Exhibition: The Great Gate of Kiev"
    PERFORMER "Herbert Von Karajan"
    INDEX 01 09:04:00
  TRACK 04 AUDIO
    TITLE "Georges Bizet / Carmen: Prelude - 1.Allegro giocoso"
    PERFORMER "Herbert Von Karajan"
    INDEX 01 15:05:00
  TRACK 05 AUDIO
    TITLE "Maurice Ravel / Bolero"
    PERFORMER "Herbert Von Karajan"
    INDEX 01 17:24:00
  TRACK 06 AUDIO
    TITLE "Johannes Brahms / Hungarian Dance No.6 in D major"
    PERFORMER "Herbert Von Karajan"
    INDEX 01 33:16:00
  TRACK 07 AUDIO
    TITLE "Richard Wagner / The Valkyrie: The Ride of Valkyries"
    PERFORMER "Herbert Von Karajan"
    INDEX 01 36:57:00
  TRACK 08 AUDIO
    TITLE "Gustav Holst / The Planets op.32: Jupiter, the Bringer of Jollity"
    PERFORMER "Herbert Von Karajan"
    INDEX 01 43:14:00
  TRACK 09 AUDIO
    TITLE "Peter Ilyich Tchaikovsky / '1812' Overture"
    PERFORMER "Herbert Von Karajan"
    INDEX 01 50:48:00
  TRACK 10 AUDIO
    TITLE "Camille Saint / Saëns"
    PERFORMER "Herbert Von Karajan"
    INDEX 01 66:18:00


FILE "CDImage.ape" WAVE

这个CDImage.ape也必须在同一目录下才行。


页首
 用户资料  
 
5 楼 
 文章标题 :
帖子发表于 : 2008-06-25 5:00 
头像

注册: 2006-05-13 4:02
帖子: 10606
送出感谢: 0 次
接收感谢: 7
和插件无关,是audacious的.dekstop文件有错,自己打开alacarte编辑一下,改成audacious %F


_________________
HP Pavilion DV6-2064CA: AMD Turion II Ultra Dual-Core Mobile M640, HD4650, 2GBx2 DDR2-800, Seagate 500GB 7200RPM SATA, BD-ROM
DELL UltraSharp 2209WA
Arch64, Testing repo


页首
 用户资料  
 
6 楼 
 文章标题 :
帖子发表于 : 2008-06-25 5:34 

注册: 2008-04-26 7:47
帖子: 229
地址: 德国 斯图加特
送出感谢: 0 次
接收感谢: 0 次
我这里新编译的audacious 1.5.1 + plugins,放.cue. ape的文件有个问题或者可能是bug,就是必须先把.ape托到playlist上去,然后,再把.cue拖上去,如果顺序相反,或者,一同托上去,程序就会freeze。中文gbk encode的.cue文件,必须得转换成utf-8才可以。而且,播放某些ape会有崩溃的情况。


页首
 用户资料  
 
7 楼 
 文章标题 :
帖子发表于 : 2008-06-25 11:58 
头像

注册: 2006-11-18 18:52
帖子: 450
送出感谢: 0 次
接收感谢: 0 次
scoky 写道:
谢谢LS的,原来将这个给取消了就可以了,但是FLAC的cue还是能读,但不能放

zhuqin_83 写道:
和插件无关,是audacious的.dekstop文件有错,自己打开alacarte编辑一下,改成audacious %F

我有点犯迷糊了...
看图

附带问一下,"%U" 和 "%f" 啥意思?


附件:
文件注释: 从播放列表和文件中载入元数据...我勾了,我也能放ape、flac、tta(从cue读取)
audacious的快捷方式我的也是%U,对播放ape、flac、tta都没有什么影响

screenshot2.png
screenshot2.png [ 220.58 KiB | 被浏览 925 次 ]

页首
 用户资料  
 
8 楼 
 文章标题 :
帖子发表于 : 2008-06-25 19:38 

注册: 2008-04-26 7:47
帖子: 229
地址: 德国 斯图加特
送出感谢: 0 次
接收感谢: 0 次
同问 %F %U有什么区别,搜索了半天也没有找到答案。


页首
 用户资料  
 
9 楼 
 文章标题 :
帖子发表于 : 2008-06-25 22:49 

注册: 2007-07-21 9:12
帖子: 99
送出感谢: 0 次
接收感谢: 0 次
zhuqin_83 写道:
和插件无关,是audacious的.dekstop文件有错,自己打开alacarte编辑一下,改成audacious %F

还是不行。。。。


附件:
screenshot1.png
screenshot1.png [ 44.03 KiB | 被浏览 898 次 ]

页首
 用户资料  
 
10 楼 
 文章标题 :
帖子发表于 : 2008-06-25 23:03 
头像

注册: 2006-11-18 18:52
帖子: 450
送出感谢: 0 次
接收感谢: 0 次
seenxu 写道:
同问 %F %U有什么区别,搜索了半天也没有找到答案。

另一帖子里看到了......
%U是URL,%f文件名


页首
 用户资料  
 
11 楼 
 文章标题 :
帖子发表于 : 2008-06-26 6:26 

注册: 2008-04-26 7:47
帖子: 229
地址: 德国 斯图加特
送出感谢: 0 次
接收感谢: 0 次
nsnl 写道:
seenxu 写道:
同问 %F %U有什么区别,搜索了半天也没有找到答案。

另一帖子里看到了......
%U是URL,%f文件名


多谢。


scoky 写道:
zhuqin_83 写道:
和插件无关,是audacious的.dekstop文件有错,自己打开alacarte编辑一下,改成audacious %F

还是不行。。。。


你试验过我说的方法没有,先把.ape,.flac文件拖到playlist上去,然后,再把.cue文件托上去,注意.cue文件的encode.看看行不行。

另外,说点跑题的话,在linux和mac下听ape或者代.cue的无损,简直就是折磨人,还好我基本就是mp3.


页首
 用户资料  
 
12 楼 
 文章标题 :
帖子发表于 : 2008-06-26 12:25 

注册: 2007-07-21 9:12
帖子: 99
送出感谢: 0 次
接收感谢: 0 次
seenxu 写道:
nsnl 写道:
seenxu 写道:
同问 %F %U有什么区别,搜索了半天也没有找到答案。

另一帖子里看到了......
%U是URL,%f文件名


多谢。


scoky 写道:
zhuqin_83 写道:
和插件无关,是audacious的.dekstop文件有错,自己打开alacarte编辑一下,改成audacious %F

还是不行。。。。


你试验过我说的方法没有,先把.ape,.flac文件拖到playlist上去,然后,再把.cue文件托上去,注意.cue文件的encode.看看行不行。

另外,说点跑题的话,在linux和mac下听ape或者代.cue的无损,简直就是折磨人,还好我基本就是mp3.



谢谢啊1现在能放了1估计是。cue的问题,我换了个就好了,不过很奇怪,用Foobar能读能放


页首
 用户资料  
 
13 楼 
 文章标题 :
帖子发表于 : 2008-06-26 15:22 

注册: 2008-04-26 7:47
帖子: 229
地址: 德国 斯图加特
送出感谢: 0 次
接收感谢: 0 次
scoky 写道:
谢谢啊1现在能放了1估计是。cue的问题,我换了个就好了,不过很奇怪,用Foobar能读能放


可能还是audacious的这个插件功能不够完善,等升级修复问题吧。
在linux上还是避免和.cue相关的文件打交道,要不就转化成mp3图省心了。


页首
 用户资料  
 
显示帖子 :  排序  
发表新帖 回复这个主题  [ 13 篇帖子 ] 

当前时区为 UTC + 8 小时


在线用户

正在浏览此版面的用户:没有注册用户 和 4 位游客


不能 在这个版面发表主题
不能 在这个版面回复主题
不能 在这个版面编辑帖子
不能 在这个版面删除帖子
不能 在这个版面提交附件

前往 :  
本站点为公益性站点,用于推广开源自由软件,由 DiaHosting VPSBudgetVM VPS 提供服务。
我们认为:软件应可免费取得,软件工具在各种语言环境下皆可使用,且不会有任何功能上的差异;
人们应有定制和修改软件的自由,且方式不受限制,只要他们自认为合适。

Powered by phpBB © 2000, 2002, 2005, 2007 phpBB Group
简体中文语系由 王笑宇 翻译