当前时区为 UTC + 8 小时



发表新帖 回复这个主题  [ 12 篇帖子 ] 
作者 内容
1 楼 
 文章标题 : vqf音频文件怎么打开?
帖子发表于 : 2010-04-10 18:41 
头像

注册: 2008-04-26 12:41
帖子: 11000
送出感谢: 11
接收感谢: 38
有没有人知道? :em06


_________________
[新手必读]wubi安装常见问题(FAQ)
[分享]装双系统的同学必看——Windows与Linux系统共享交换分区的方法
kde下唯美的暗黑内透主题(无需编译)
无穷老机上的Trinity Desktop Environment


页首
 用户资料  
 
2 楼 
 文章标题 : Re: vqf音频文件怎么打开?
帖子发表于 : 2010-04-10 18:43 
头像

注册: 2008-12-13 19:39
帖子: 13284
地址: 物华天宝人杰地灵
送出感谢: 1
接收感谢: 6
召唤Del。。。这个音视频解码器方面的问题。。。Del比较有研究。 :em02

警告Photor。。。竟然在同一板块重复发贴,害某帮你删除贴子。 :em04


_________________
行到水穷处,坐看云起时。
海内生明月,天涯共此夕。
--------------------吾本独!


页首
 用户资料  
 
3 楼 
 文章标题 : Re: vqf音频文件怎么打开?
帖子发表于 : 2010-04-10 19:21 

注册: 2008-01-09 22:41
帖子: 18311
送出感谢: 0 次
接收感谢: 6
代码:
delectate@delectate:~$ mplayer '/home/delectate/music/示例音乐 - 小村之恋.vqf'
MPlayer SVN-r30886-4.4.3 (C) 2000-2010 MPlayer Team
150 audio & 335 video codecs
mplayer: could not connect to socket
mplayer: No such file or directory
Failed to open LIRC support. You will not be able to use your remote control.

Playing /home/delectate/music/示例音乐 - 小村之恋.vqf.
libavformat file format detected.
[vqf @ 0xabf8bb0]max_analyze_duration reached
[vqf @ 0xabf8bb0]Estimating duration from bitrate, this may be inaccurate
[lavf] Audio stream found, -aid 0
Clip info:
 filename: D:\My Documents\My Music\ʾ������ - С��֮��
==========================================================================
Opening audio decoder: [ffmpeg] FFmpeg/libavcodec audio decoders
AUDIO: 44100 Hz, 2 ch, floatle, 96.0 kbit/3.40% (ratio: 12000->352800)
Selected audio codec: [fftwinvq] afm: ffmpeg (FFmpeg TwinVQ)
==========================================================================
[AO OSS] audio_setup: Can't open audio device /dev/dsp: Device or resource busy
AO: [alsa] 44100Hz 2ch floatle (4 bytes per sample)
Video: no video
Starting playback...
A:   6.9 (06.8) of 145.2 (02:25.2)  0.4%
Exiting... (Quit)
delectate@delectate:~$


mplayer就能播放哦

因为没有找到sample就开虚拟机下的转换器(k,转换器还找我要注册码……)

然后把win自带的一个wma示例转换了下,拷到host,用mediainfo可以识别音频流

直接mplayer可以播放,使用的lavfpref分粒器,fftwinvq解码器

ps:音质差的可以~


页首
 用户资料  
 
4 楼 
 文章标题 : Re: vqf音频文件怎么打开?
帖子发表于 : 2010-04-10 19:24 

注册: 2008-01-09 22:41
帖子: 18311
送出感谢: 0 次
接收感谢: 6
代码:
delectate@delectate:~$ ffplay '/home/delectate/music/示例音乐 - 小村之恋.vqf'
FFplay version SVN-r22511, Copyright (c) 2003-2010 the FFmpeg developers
  built on Mar 13 2010 19:45:51 with gcc 4.4.3
  configuration: --prefix=/usr --enable-gpl --enable-libmp3lame --enable-libvorbis --enable-libfaac --enable-libfaad --enable-libxvid --enable-libx264 --enable-libtheora --enable-postproc --enable-shared --enable-pthreads --enable-x11grab --enable-libopencore_amrnb --enable-libopencore_amrwb --enable-version3 --enable-nonfree --enable-runtime-cpudetect
  libavutil     50.12. 0 / 50.12. 0
  libavcodec    52.59. 0 / 52.59. 0
  libavformat   52.55. 0 / 52.55. 0
  libavdevice   52. 2. 0 / 52. 2. 0
  libswscale     0.10. 0 /  0.10. 0
  libpostproc   51. 2. 0 / 51. 2. 0
[vqf @ 0x9a52810]max_analyze_duration reached
[vqf @ 0x9a52810]Estimating duration from bitrate, this may be inaccurate
Input #0, vqf, from '/home/delectate/music/示例音乐 - 小村之恋.vqf':
  Metadata:
    filename        : D:\My Documents\My Music\ʾ������ - С��֮��
  Duration: 00:02:25.21, start: 0.000000, bitrate: 95 kb/s
    Stream #0.0: Audio: twinvq, 44100 Hz, 2 channels, flt, 96 kb/s
Seek to 40% ( 0:00:57) of total duration ( 0:02:25)       f=0/0   
  58.72 A-V:  0.000 s:0.0 aq=  320KB vq=    0KB sq=    0B f=0/0   
delectate@delectate:~$ 0O


ffplay也可以播放,但是vlc悲情了


页首
 用户资料  
 
5 楼 
 文章标题 : Re: vqf音频文件怎么打开?
帖子发表于 : 2010-04-10 20:36 
头像

注册: 2008-04-26 12:41
帖子: 11000
送出感谢: 11
接收感谢: 38
delectate辛苦了,不知道audacious行不行? :em09


_________________
[新手必读]wubi安装常见问题(FAQ)
[分享]装双系统的同学必看——Windows与Linux系统共享交换分区的方法
kde下唯美的暗黑内透主题(无需编译)
无穷老机上的Trinity Desktop Environment


页首
 用户资料  
 
6 楼 
 文章标题 : Re: vqf音频文件怎么打开?
帖子发表于 : 2010-04-10 21:12 
头像

注册: 2008-04-26 12:41
帖子: 11000
送出感谢: 11
接收感谢: 38
delectate 写道:
代码:
delectate@delectate:~$ ffplay '/home/delectate/music/示例音乐 - 小村之恋.vqf'
FFplay version SVN-r22511, Copyright (c) 2003-2010 the FFmpeg developers
  built on Mar 13 2010 19:45:51 with gcc 4.4.3
  configuration: --prefix=/usr --enable-gpl --enable-libmp3lame --enable-libvorbis --enable-libfaac --enable-libfaad --enable-libxvid --enable-libx264 --enable-libtheora --enable-postproc --enable-shared --enable-pthreads --enable-x11grab --enable-libopencore_amrnb --enable-libopencore_amrwb --enable-version3 --enable-nonfree --enable-runtime-cpudetect
  libavutil     50.12. 0 / 50.12. 0
  libavcodec    52.59. 0 / 52.59. 0
  libavformat   52.55. 0 / 52.55. 0
  libavdevice   52. 2. 0 / 52. 2. 0
  libswscale     0.10. 0 /  0.10. 0
  libpostproc   51. 2. 0 / 51. 2. 0
[vqf @ 0x9a52810]max_analyze_duration reached
[vqf @ 0x9a52810]Estimating duration from bitrate, this may be inaccurate
Input #0, vqf, from '/home/delectate/music/示例音乐 - 小村之恋.vqf':
  Metadata:
    filename        : D:\My Documents\My Music\ʾ������ - С��֮��
  Duration: 00:02:25.21, start: 0.000000, bitrate: 95 kb/s
    Stream #0.0: Audio: twinvq, 44100 Hz, 2 channels, flt, 96 kb/s
Seek to 40% ( 0:00:57) of total duration ( 0:02:25)       f=0/0   
  58.72 A-V:  0.000 s:0.0 aq=  320KB vq=    0KB sq=    0B f=0/0   
delectate@delectate:~$ 0O


ffplay也可以播放,但是vlc悲情了

mplayer确实强悍,我n年以前收藏的一首“再向虎山行”(见附件)居然也能放,不过ffplay不行,提示找不到解码器 :em20


附件:
zaixianghushanxing.vqf.gz [269.55 KiB]
被下载 8 次


_________________
[新手必读]wubi安装常见问题(FAQ)
[分享]装双系统的同学必看——Windows与Linux系统共享交换分区的方法
kde下唯美的暗黑内透主题(无需编译)
无穷老机上的Trinity Desktop Environment
页首
 用户资料  
 
7 楼 
 文章标题 : Re: vqf音频文件怎么打开?
帖子发表于 : 2010-04-10 21:27 

注册: 2008-01-09 22:41
帖子: 18311
送出感谢: 0 次
接收感谢: 6
audacity 载入不能

用smplayer调了调eq,效果好点了


附件:
Screenshot.png
Screenshot.png [ 137.28 KiB | 被浏览 599 次 ]

页首
 用户资料  
 
8 楼 
 文章标题 : Re: vqf音频文件怎么打开?
帖子发表于 : 2010-04-10 21:33 
头像

注册: 2008-04-26 12:41
帖子: 11000
送出感谢: 11
接收感谢: 38
delectate 写道:
audacity 载入不能

用smplayer调了调eq,效果好点了

不是说audacity,是audacious,反正我这里打不开,不知道能不能有什么插件实现,要是audacious能直接用winamp的插件就好了 :em20


_________________
[新手必读]wubi安装常见问题(FAQ)
[分享]装双系统的同学必看——Windows与Linux系统共享交换分区的方法
kde下唯美的暗黑内透主题(无需编译)
无穷老机上的Trinity Desktop Environment


页首
 用户资料  
 
9 楼 
 文章标题 : Re: vqf音频文件怎么打开?
帖子发表于 : 2010-04-10 21:42 

注册: 2008-01-09 22:41
帖子: 18311
送出感谢: 0 次
接收感谢: 6
ffmpeg -i zaixianghushanxing.vqf output.mp3

然后用audacious播放mp3把!


页首
 用户资料  
 
10 楼 
 文章标题 : Re: vqf音频文件怎么打开?
帖子发表于 : 2010-04-10 21:52 
头像

注册: 2008-04-26 12:41
帖子: 11000
送出感谢: 11
接收感谢: 38
恐怕也只好如此了 :em06


_________________
[新手必读]wubi安装常见问题(FAQ)
[分享]装双系统的同学必看——Windows与Linux系统共享交换分区的方法
kde下唯美的暗黑内透主题(无需编译)
无穷老机上的Trinity Desktop Environment


页首
 用户资料  
 
11 楼 
 文章标题 : Re: vqf音频文件怎么打开?
帖子发表于 : 2010-04-11 0:27 

注册: 2005-05-01 12:54
帖子: 920
送出感谢: 0 次
接收感谢: 0 次
delectate 写道:
ffmpeg -i zaixianghushanxing.vqf output.mp3

然后用audacious播放mp3把!

这个转换是有损的吧,出来效果咋样?


页首
 用户资料  
 
12 楼 
 文章标题 : Re: vqf音频文件怎么打开?
帖子发表于 : 2010-04-11 0:37 

注册: 2008-01-09 22:41
帖子: 18311
送出感谢: 0 次
接收感谢: 6
Freesnake 写道:
delectate 写道:
ffmpeg -i zaixianghushanxing.vqf output.mp3

然后用audacious播放mp3把!

这个转换是有损的吧,出来效果咋样?

原始音频
引用:
Duration: 00:01:50.34, start: 0.000000, bitrate: 20 kb/s
Stream #0.0: Audio: twinvq, 22050 Hz, 1 channels, flt, 20 kb/s


就算是转成flac,也是和mp3一样,10k以上就已经缺失了

所以,有损2有损,mp3比flac要省空间了 :em06


页首
 用户资料  
 
显示帖子 :  排序  
发表新帖 回复这个主题  [ 12 篇帖子 ] 

当前时区为 UTC + 8 小时


在线用户

正在浏览此版面的用户:没有注册用户 和 4 位游客


不能 在这个版面发表主题
不能 在这个版面回复主题
不能 在这个版面编辑帖子
不能 在这个版面删除帖子
不能 在这个版面提交附件

前往 :  
本站点为公益性站点,用于推广开源自由软件,由 DiaHosting VPSBudgetVM VPS 提供服务。
我们认为:软件应可免费取得,软件工具在各种语言环境下皆可使用,且不会有任何功能上的差异;
人们应有定制和修改软件的自由,且方式不受限制,只要他们自认为合适。

Powered by phpBB © 2000, 2002, 2005, 2007 phpBB Group
简体中文语系由 王笑宇 翻译