当前时区为 UTC + 8 小时



发表新帖 回复这个主题  [ 10 篇帖子 ] 
作者 内容
1 楼 
 文章标题 : 请教:如何将ra格式的音频文件转换为mp3格式?
帖子发表于 : 2010-09-19 22:44 

注册: 2006-12-19 20:05
帖子: 50
送出感谢: 0 次
接收感谢: 0 次
RT.
我有尝试过使用soundKonverter,但是转换出来的mp3只有1.0k大小,不能播放。

不知各位老鸟会使用什么软件来转换音频,还请不吝赐教 :em06


页首
 用户资料  
 
2 楼 
 文章标题 : Re: 请教:如何将ra格式的音频文件转换为mp3格式?
帖子发表于 : 2010-09-19 22:47 

注册: 2008-01-09 22:41
帖子: 18311
送出感谢: 0 次
接收感谢: 6
代码:
 ffmpeg -i '/home/delectate/music/相声/刘宝瑞相声集/官场斗.rm'  output.mp3


页首
 用户资料  
 
3 楼 
 文章标题 : Re: 请教:如何将ra格式的音频文件转换为mp3格式?
帖子发表于 : 2010-09-19 22:52 

注册: 2006-12-19 20:05
帖子: 50
送出感谢: 0 次
接收感谢: 0 次
这样子转出来的mp3还是会有问题哦,大小为0
代码:
moran@linux:~/Desktop$ ffmpeg -i '1a.ra' 1a.mp3
FFmpeg version SVN-r0.5.1-4:0.5.1-1ubuntu1, Copyright (c) 2000-2009 Fabrice Bellard, et al.
  configuration: --extra-version=4:0.5.1-1ubuntu1 --prefix=/usr --enable-avfilter --enable-avfilter-lavf --enable-vdpau --enable-bzlib --enable-libgsm --enable-libschroedinger --enable-libspeex --enable-libtheora --enable-libvorbis --enable-pthreads --enable-zlib --disable-stripping --disable-vhook --enable-runtime-cpudetect --enable-gpl --enable-postproc --enable-swscale --enable-x11grab --enable-libdc1394 --enable-shared --disable-static
  libavutil     49.15. 0 / 49.15. 0
  libavcodec    52.20. 1 / 52.20. 1
  libavformat   52.31. 0 / 52.31. 0
  libavdevice   52. 1. 0 / 52. 1. 0
  libavfilter    0. 4. 0 /  0. 4. 0
  libswscale     0. 7. 1 /  0. 7. 1
  libpostproc   51. 2. 0 / 51. 2. 0
  built on Mar  4 2010 12:35:30, gcc: 4.4.3
[NULL @ 0x8f0a090]Unsupported video codec
Input #0, rm, from '1a.ra':
  Duration: 01:02:51.65, start: 0.000000, bitrate: 32 kb/s
    Stream #0.0: Audio: cook, 22050 Hz, mono, s16, 32 kb/s
    Stream #0.1: Data: 0x0000
Output #0, mp3, to '1a.mp3':
    Stream #0.0: Audio: 0x0000, 22050 Hz, mono, s16, 64 kb/s
Stream mapping:
  Stream #0.0 -> #0.0
Unsupported codec for output stream #0.0
moran@linux:~/Desktop$ ll 1a.mp3
-rw-r--r-- 1 moran moran 0 2010-09-19 22:50 1a.mp3
moran@linux:~/Desktop$ ll 1a.ra
-rwxr-xr-x 1 moran moran 15455424 2008-06-13 10:22 1a.ra
moran@linux:~/Desktop$


页首
 用户资料  
 
4 楼 
 文章标题 : Re: 请教:如何将ra格式的音频文件转换为mp3格式?
帖子发表于 : 2010-09-19 22:57 

注册: 2008-01-09 22:41
帖子: 18311
送出感谢: 0 次
接收感谢: 6
ffplay file

看看能听嘛,能就ok,不能就杯具呗


页首
 用户资料  
 
5 楼 
 文章标题 : Re: 请教:如何将ra格式的音频文件转换为mp3格式?
帖子发表于 : 2010-09-19 22:57 

注册: 2006-12-19 20:05
帖子: 50
送出感谢: 0 次
接收感谢: 0 次
查看了下mmpeg支持的格式列表,看起来不支持ra格式的
以r开头的格式如下:
代码:
 DEV    rawvideo        raw video
 D A    real_144        RealAudio 1.0 (14.4K)
 D A    real_288        RealAudio 2.0 (28.8K)
 D V D  rl2             RL2 video
 DEA    roq_dpcm        id RoQ DPCM
 DEV D  roqvideo        id RoQ video
 D V D  rpza            QuickTime video (RPZA)
 DEV D  rv10            RealVideo 1.0
 DEV D  rv20            RealVideo 2.0
 D V D  rv30            RealVideo 3.0
 D V D  rv40            RealVideo 4.0


没有找到ra格式,mmpeg不支持ra格式?


页首
 用户资料  
 
6 楼 
 文章标题 : Re: 请教:如何将ra格式的音频文件转换为mp3格式?
帖子发表于 : 2010-09-19 23:00 

注册: 2006-12-19 20:05
帖子: 50
送出感谢: 0 次
接收感谢: 0 次
delectate 写道:
ffplay file

看看能听嘛,能就ok,不能就杯具呗


杯具了... :em20


页首
 用户资料  
 
7 楼 
 文章标题 : Re: 请教:如何将ra格式的音频文件转换为mp3格式?
帖子发表于 : 2010-09-19 23:02 

注册: 2008-01-09 22:41
帖子: 18311
送出感谢: 0 次
接收感谢: 6
ra=real audio?

理论上可以的吧……


页首
 用户资料  
 
8 楼 
 文章标题 : Re: 请教:如何将ra格式的音频文件转换为mp3格式?
帖子发表于 : 2010-09-19 23:06 

注册: 2006-12-19 20:05
帖子: 50
送出感谢: 0 次
接收感谢: 0 次
对这个格式了解不多哦
从网上下载的资料,想转成mp3随身带着听...


页首
 用户资料  
 
9 楼 
 文章标题 : Re: 请教:如何将ra格式的音频文件转换为mp3格式?
帖子发表于 : 2010-09-20 10:12 

注册: 2006-02-27 9:20
帖子: 265
送出感谢: 0 次
接收感谢: 0 次
mplayer -ao pcm:file=your.wav xxx.ra
有了wav文件,再用lame之类转成mp3.


_________________
一只菜鸟的自白:Windows常被病毒搞坏;Linux常被自己玩死.


页首
 用户资料  
 
10 楼 
 文章标题 : Re: 请教:如何将ra格式的音频文件转换为mp3格式?
帖子发表于 : 2010-09-20 10:15 
头像

注册: 2005-08-14 21:55
帖子: 58428
地址: 长沙
送出感谢: 4
接收感谢: 274
能播放,就能转。搜索"2mp3.bash"


_________________
● 鸣学


页首
 用户资料  
 
显示帖子 :  排序  
发表新帖 回复这个主题  [ 10 篇帖子 ] 

当前时区为 UTC + 8 小时


在线用户

正在浏览此版面的用户:没有注册用户 和 5 位游客


不能 在这个版面发表主题
不能 在这个版面回复主题
不能 在这个版面编辑帖子
不能 在这个版面删除帖子
不能 在这个版面提交附件

前往 :  
本站点为公益性站点,用于推广开源自由软件,由 DiaHosting VPSBudgetVM VPS 提供服务。
我们认为:软件应可免费取得,软件工具在各种语言环境下皆可使用,且不会有任何功能上的差异;
人们应有定制和修改软件的自由,且方式不受限制,只要他们自认为合适。

Powered by phpBB © 2000, 2002, 2005, 2007 phpBB Group
简体中文语系由 王笑宇 翻译